<?xml version="1.0" standalone="no"?>
<!DOCTYPE svg PUBLIC "-//W3C//DTD SVG 1.1//EN" "http://www.w3.org/Graphics/SVG/1.1/DTD/svg11.dtd" >
<!--
2013-9-30: Created.
-->
<svg>
<metadata>
Created by iconfont
</metadata>
<defs>

<font id="iconfont" horiz-adv-x="1024" >
  <font-face
    font-family="iconfont"
    font-weight="500"
    font-stretch="normal"
    units-per-em="1024"
    ascent="896"
    descent="-128"
  />
    <missing-glyph />
    
    <glyph glyph-name="icon" unicode="&#58881;" d="M933.4461 252.137787c-18.783809 108.945271-97.673553 180.322925-97.673553 180.322925 11.268648 98.920964-30.055526 116.461455-30.055526 116.461455C797.015847 854.972585 533.382495 849.61353 527.847431 849.468221c-5.542226 0.145309-269.211395 5.504364-277.872658-300.5481 0 0-41.325198-17.539468-30.054503-116.461455 0 0-78.894861-71.377654-97.676623-180.322925 0 0-10.033517-184.082552 90.159416-22.543436 0 0 22.544459-61.344137 63.86761-116.455315 0 0-73.897034-25.061792-67.621097-90.164532 0 0-2.517333-72.618924 157.784606-67.62519 0 0 112.701828 8.756431 146.515958 56.350402l14.766308 0 0.26299 0 14.765285 0c33.809013-47.596018 146.513912-56.350402 146.513912-56.350402 160.26203-4.993734 157.781536 67.62519 157.781536 67.62519 6.238075 65.10274-67.620074 90.164532-67.620074 90.164532 41.324174 55.109132 63.86147 116.455315 63.86147 116.455315C943.437661 68.055235 933.4461 252.137787 933.4461 252.137787L933.4461 252.137787z"  horiz-adv-x="1024" />

    
    <glyph glyph-name="444" unicode="&#58936;" d="M797.54285 164.099684 797.54285 458.754564l-61.386092 0c6.062066-19.098987 9.094122-38.954197 9.094122-59.567677 0-38.19695-9.699919-73.435523-29.100782-105.721857-19.401886-32.283264-45.775556-57.82294-79.121012-76.616982-33.345456-18.795065-69.721945-28.193109-109.131513-28.193109-59.718103 0-110.798479 20.537755-153.238057 61.613266-42.440601 41.076534-63.658855 90.715071-63.658855 148.918681 0 20.614503 3.031033 40.469714 9.095145 59.567677l-64.116273 0 0-294.65488c0-7.880481 2.65241-14.474666 7.957229-19.778462 5.305843-5.304819 11.899004-7.957229 19.780509-7.957229l486.086817 0c7.578606 0 14.096043 2.653433 19.552312 7.957229C794.812669 149.625018 797.54285 156.21818 797.54285 164.099684L797.54285 164.099684zM668.403654 406.461571c0 37.589107-13.71742 69.647243-41.151235 96.17134-27.434839 26.524097-60.554144 39.787168-99.355869 39.787168-38.498826 0-71.464635-13.263072-98.899474-39.787168-27.433816-26.52512-41.151235-58.582233-41.151235-96.17134 0-37.589107 13.71742-69.64622 41.151235-96.170317 27.434839-26.52512 60.400648-39.787168 98.899474-39.787168 38.801724 0 71.92103 13.262048 99.355869 39.787168C654.686235 336.815351 668.403654 368.872464 668.403654 406.461571zM797.54285 570.157817l0 75.027787c0 8.487302-3.03308 15.839757-9.095145 22.054295-6.063089 6.214539-13.490246 9.320273-22.279423 9.320273l-79.119989 0c-8.792247 0-16.219403-3.106758-22.280446-9.320273-6.063089-6.214539-9.095145-13.56597-9.095145-22.054295l0-75.027787c0-8.7902 3.032056-16.21838 9.095145-22.280446 6.062066-6.063089 13.489222-9.095145 22.280446-9.095145l79.119989 0c8.7902 0 16.217357 3.031033 22.279423 9.095145C794.50977 553.939437 797.54285 561.366593 797.54285 570.157817zM876.661815 664.737916l0-519.281847c0-24.554232-8.792247-45.62206-26.372647-63.204507-17.58347-17.582447-38.650275-26.373671-63.205531-26.373671L267.80179 55.877891c-24.555256 0-45.62206 8.792247-63.204507 26.373671s-26.372647 38.650275-26.372647 63.204507L178.224636 664.737916c0 24.555256 8.7902 45.62206 26.372647 63.204507s38.650275 26.372647 63.204507 26.372647l519.281847 0c24.555256 0 45.62206-8.7902 63.205531-26.372647C867.869568 710.359976 876.661815 689.293171 876.661815 664.737916z"  horiz-adv-x="1024" />

    
    <glyph glyph-name="weixin" unicode="&#59028;" d="M958.828 281.454c0 120.659-111.006 218.796-250.973 223.622-16.090 141.573-152.836 252.582-318.542 252.582-176.967 0-320.15-123.879-320.15-278.321 0-91.7 51.483-172.142 130.311-223.622 9.653-4.827-28.959-85.266-19.305-90.094 16.090-9.653 80.441 59.525 98.137 53.090 35.394-11.263 72.396-17.696 112.617-17.696 19.305 0 38.61 1.609 57.917 4.827 37.003-85.266 133.531-146.399 246.146-146.399 30.567 0 61.134 4.827 88.485 12.87 8.043 3.219 70.787-51.483 78.831-48.265 14.478 4.827-25.741 69.178-12.87 77.222 65.962 40.22 109.398 106.181 109.398 180.186zM598.457 337.764c-14.478 0-27.348 12.87-27.348 27.348s11.263 27.348 27.348 27.348c14.478 0 27.348-12.87 27.348-27.348 0-14.478-11.263-27.348-27.348-27.348zM432.75 281.454c0-6.434 0-14.478 1.609-22.523-14.478-1.609-28.959-3.219-43.437-3.219-37.003 0-72.396 6.434-104.571 17.696-3.219 1.609-14.478 4.827-20.914 0-14.478-9.653-32.174-32.174-32.174-32.174s6.434 16.090 9.653 38.61c1.609 9.653-14.478 17.696-17.696 19.305-59.525 40.22-98.137 109.398-98.137 178.578 0 123.879 117.441 223.622 263.841 223.622 136.749 0 247.756-86.874 262.234-199.489-125.486-17.696-220.405-109.398-220.405-220.405zM765.771 337.764c-14.478 0-27.348 12.87-27.348 27.348s11.263 27.348 27.348 27.348c14.478 0 27.348-12.87 27.348-27.348 0-14.478-11.263-27.348-27.348-27.348zM501.93 535.644c22.523 0 41.828 19.305 41.828 41.828s-19.305 41.828-41.828 41.828c-22.523 0-41.828-19.305-41.828-41.828 0-24.132 19.305-41.828 41.828-41.828zM279.915 535.644c22.523 0 41.828 19.305 41.828 41.828s-19.305 41.828-41.828 41.828c-22.523 0-41.828-19.305-41.828-41.828 0-24.132 17.696-41.828 41.828-41.828z"  horiz-adv-x="1024" />

    
    <glyph glyph-name="facebook" unicode="&#58998;" d="M709.31249095 774.21083276v-116.53355201H640.01034133q-37.96168725 0-51.204137-15.89093845t-13.24244897-47.67281691v-83.4274292h129.33458645l-17.21518436-130.65883081H575.56375536v-335.03396192H440.49077464V380.02726538H327.92995802V510.68609619h112.56081662V606.9145598299999q0 82.10318407 45.90715725 127.34821799T608.66987817 779.5078125q64.88800049 0 100.64261278-5.29697974z"  horiz-adv-x="1024" />

    
    <glyph glyph-name="time" unicode="&#58924;" d="M512 832C264.96 832 64 631.04 64 384s200.96-448 448-448 448 200.96 448 448S759.04 832 512 832z m0-831.712c-211.584 0-383.712 172.16-383.712 383.712 0 211.584 172.128 383.712 383.712 383.712 211.552 0 383.712-172.128 383.712-383.712 0-211.552-172.16-383.712-383.712-383.712zM671.968 384H512V607.936c0 17.76-14.24 32.128-32 32.128s-32-14.4-32-32.128V352c0-17.76 14.272-32 32-32h191.968c17.76 0 32.128 14.24 32.128 32s-14.368 32-32.128 32z"  horiz-adv-x="1024" />

    
    <glyph glyph-name="gongsiyuanjing" unicode="&#58901;" d="M620.9 213.6H393.7c-7.6 0-14.8 3.5-19.5 9.4-28 35.1-49.8 74.2-64.8 116.3-15.5 43.6-23.4 89.3-23.4 136 0 73.7 20 145.8 57.9 208.7 36.7 61 89.1 111.4 151.3 145.9 7.5 4.2 16.7 4.2 24.2 0C581.7 795.4 634 745 670.8 684c37.8-62.8 57.8-135 57.8-208.6 0-46.7-7.9-92.4-23.4-136-15-42.1-36.8-81.3-64.8-116.3-4.7-6-11.9-9.5-19.5-9.5z m-214.9 50h202.6c45.8 61.4 70 134.3 70 211.7 0 124.4-65.3 239.6-171.3 303.8C401.3 714.8 336 599.7 336 475.3c0-77.4 24.2-150.3 70-211.7zM591.7 138.6H423.1c-13.8 0-25 11.2-25 25v75c0 13.8 11.2 25 25 25h168.6c13.8 0 25-11.2 25-25v-75c0-13.8-11.2-25-25-25z m-143.6 50h118.6v25H448.1v-25zM507.4 486.6c-53.4 0-96.9 43.5-96.9 96.9s43.5 96.9 96.9 96.9c53.4 0 96.9-43.5 96.9-96.9s-43.5-96.9-96.9-96.9z m0 143.8c-25.9 0-46.9-21-46.9-46.9s21-46.9 46.9-46.9 46.9 21 46.9 46.9-21 46.9-46.9 46.9zM258.5 223.5c-8.3 0-16.1 4.1-20.7 11-20.1 29.8-30.7 64.7-30.7 100.9 0 60.7 30.2 117.1 80.7 150.8 11.5 7.7 27 4.6 34.7-6.9 7.7-11.5 4.6-27-6.9-34.7-36.6-24.4-58.5-65.2-58.5-109.2 0-14.5 2.3-28.6 6.8-42 21.3 20.1 47.3 34.9 75.8 42.8 13.3 3.7 27.1-4.1 30.8-17.4 3.7-13.3-4.1-27.1-17.4-30.8-30.1-8.4-56.3-27.3-73.8-53.4-4.7-6.9-12.4-11.1-20.8-11.1zM755.6 223.5c-8.4 0-16.1 4.2-20.8 11.1-17.5 26.1-43.7 45.1-73.8 53.4-13.3 3.7-21.1 17.5-17.4 30.8 3.7 13.3 17.5 21.1 30.8 17.4 28.5-7.9 54.5-22.7 75.8-42.8 4.5 13.4 6.8 27.5 6.8 42 0 44-21.9 84.8-58.5 109.2-11.5 7.7-14.6 23.2-6.9 34.7 7.7 11.5 23.2 14.6 34.7 6.9 50.6-33.7 80.7-90.1 80.7-150.8 0-36.2-10.6-71.1-30.7-100.9-4.6-6.9-12.4-11-20.7-11zM507.4 293.2c-13.8 0-25 11.2-25 25V442.8c0 13.8 11.2 25 25 25s25-11.2 25-25v-124.6c0-13.8-11.2-25-25-25zM435.7 57.4c-13.8 0-25 11.2-25 25v15.2c0 13.8 11.2 25 25 25s25-11.2 25-25v-15.2c0-13.8-11.2-25-25-25zM577.2 56.5c-13.8 0-25 11.2-25 25v16.1c0 13.8 11.2 25 25 25s25-11.2 25-25v-16.1c0-13.8-11.2-25-25-25zM507.4 26.3c-13.8 0-25 11.2-25 25v47.2c0 13.8 11.2 25 25 25s25-11.2 25-25v-47.2c0-13.8-11.2-25-25-25zM295-37.8h-98.5C128.4-37.8 73 17.6 73 85.7s55.4 123.5 123.5 123.5S320 153.8 320 85.7v-98.5c0-13.8-11.2-25-25-25z m-98.5 197c-40.5 0-73.5-33-73.5-73.5s33-73.5 73.5-73.5H270v73.5c0 40.5-33 73.5-73.5 73.5zM817.6-37.8h-98.5c-13.8 0-25 11.2-25 25v98.5c0 68.1 55.4 123.5 123.5 123.5s123.5-55.4 123.5-123.5-55.4-123.5-123.5-123.5z m-73.5 50h73.5c40.5 0 73.5 33 73.5 73.5s-33 73.5-73.5 73.5-73.5-33-73.5-73.5v-73.5zM719.1-37.8H295c-13.8 0-25 11.2-25 25s11.2 25 25 25h424.1c13.8 0 25-11.2 25-25s-11.2-25-25-25z"  horiz-adv-x="1024" />

    
    <glyph glyph-name="gongsishiming-" unicode="&#58894;" d="M602.2 96.7c-8.5 0-16.5 5.2-19.6 13.7-4 10.8 1.6 22.8 12.4 26.7 102 37.4 170.5 135.5 170.5 244.2 0 143.3-116.6 260-260 260-11.5 0-20.8 9.3-20.8 20.8s9.3 20.8 20.8 20.8c166.3 0 301.6-135.3 301.6-301.6 0-126.1-79.5-239.9-197.9-283.3-2.2-0.9-4.7-1.3-7-1.3zM504.7 640.9c-6.6 0-13.2 3.2-17.2 9.1-6.5 9.5-4.1 22.5 5.4 29l87.8 60.1c9.5 6.5 22.5 4.1 29-5.4s4.1-22.5-5.4-29l-87.8-60.1c-3.6-2.5-7.7-3.7-11.8-3.7zM509.3 93.8c-166.3 0-301.6 135.3-301.6 301.6 0 126.1 79.5 240 197.9 283.3 10.8 4 22.8-1.6 26.7-12.4 4-10.8-1.6-22.8-12.4-26.7-102-37.4-170.5-135.5-170.5-244.2 0-143.4 116.6-260 260-260 11.5 0 20.8-9.3 20.8-20.8-0.1-11.5-9.4-20.8-20.9-20.8zM424.2 34.4c-6.6 0-13.2 3.2-17.2 9.1-6.5 9.5-4.1 22.4 5.4 29l87.8 60.1c9.5 6.5 22.5 4.1 29-5.4s4.1-22.4-5.4-29L436 38c-3.6-2.4-7.7-3.6-11.8-3.6zM501.8 185.6c-112.8 0-204.6 91.8-204.6 204.6S389 594.8 501.8 594.8 706.4 503 706.4 390.2s-91.8-204.6-204.6-204.6z m0 367.5c-89.8 0-162.9-73.1-162.9-162.9 0-89.8 73.1-162.9 162.9-162.9s162.9 73.1 162.9 162.9c0 89.8-73.1 162.9-162.9 162.9zM465.2 208.2c-42.1 51-65.3 115.7-65.3 182 0 67.5 24 133.1 67.5 184.6l15.9-13.4c-40.3-47.7-62.6-108.5-62.6-171.1 0-61.5 21.5-121.4 60.6-168.7l-16.1-13.4zM501.8 288.3c-65.4 0-129.4 22.7-180.1 63.8l13.1 16.2c47-38.1 106.3-59.2 167-59.2 65.1 0 127.6 23.8 176.2 67l13.8-15.6c-52.4-46.6-119.9-72.2-190-72.2zM328.6 388.2L314.9 404c51.9 44.8 118.2 69.4 186.8 69.4 68.3 0 134.5-24.5 186.2-68.9l-13.5-15.8c-48 41.2-109.3 63.9-172.7 63.9-63.6 0-125.1-22.9-173.1-64.4zM536.4 205.9l-15.9 13.4c40.2 47.7 62.4 108.4 62.4 170.9 0 65.4-24 128.2-67.5 176.8l15.5 13.9c47-52.5 72.8-120.2 72.8-190.7 0-67.4-23.9-132.8-67.3-184.3zM478 565h21v-375h-21zM311 377h375v-20H311z"  horiz-adv-x="1024" />

    
    <glyph glyph-name="twitter" unicode="&#59522;" d="M928 641.7c-30.6-13.2-63.9-22.7-98.2-26.4 35.4 21.1 62.3 54.4 75 94-32.7-19.5-69.7-33.8-108.2-41.2C765.4 701.4 721.1 722 672 722c-94.5 0-170.5-76.6-170.5-170.6 0-13.2 1.6-26.4 4.2-39.1-141.5 7.4-267.7 75-351.6 178.5-14.8-25.4-23.2-54.4-23.2-86.1 0-59.2 30.1-111.4 76-142.1-28 1.1-54.4 9-77.1 21.7v-2.1c0-82.9 58.6-151.6 136.7-167.4-14.3-3.7-29.6-5.8-44.9-5.8-11.1 0-21.6 1.1-32.2 2.6C211 244 273.9 194.9 348.8 193.3c-58.6-45.9-132-72.9-211.7-72.9-14.3 0-27.5 0.5-41.2 2.1C171.5 74 261.2 46 357.8 46 671.4 46 843 305.8 843 531.3c0 7.4 0 14.8-0.5 22.2 33.2 24.3 62.3 54.4 85.5 88.2z"  horiz-adv-x="1024" />

    
    <glyph glyph-name="jiazhi" unicode="&#58905;" d="M952.8 580.3l-105 190.1C838.4 787.5 821 798 802.3 798H221.7c-18.8 0-36.1-10.5-45.5-27.6l-105-190.1c-11-19.8-9.3-44.8 4.3-62.7l395.3-524.8c10.5-14 25.9-21 41.3-21 15.4 0 30.7 7 41.3 21l395.3 524.8c13.4 17.9 15.1 42.8 4.1 62.7z m-42.6-33.9L514.9 21.6c-1.4-1.9-2.5-1.9-2.9-1.9s-1.5 0-2.9 1.9L113.8 546.4c-2.2 2.9-2.4 7.4-0.6 10.7l105 190.1c1.1 2 2.5 2.8 3.5 2.8h580.5c1 0 2.4-0.9 3.5-2.8l105-190.1c1.9-3.3 1.7-7.8-0.5-10.7zM744 600H280c-13.3 0-24-10.7-24-24s10.7-24 24-24h464c13.3 0 24 10.7 24 24s-10.7 24-24 24z"  horiz-adv-x="1024" />

    
    <glyph glyph-name="weibiaoti--" unicode="&#58918;" d="M318.20117187 195.06262206999997v33.70056152-13.34838867c0.65917969-11.37084961 10.05249023-20.35217286 21.58813477-20.35217285h-21.58813476zM196.33532714 72.29040526999995v33.70056153-13.34838867c0.65917969-11.37084961 10.05249023-20.35217286 21.58813478-20.35217285h-21.58813477zM706.95239258 195.14501953h-33.70056153H686.68261719c11.37084961 0.65917969 20.35217286 10.05249023 20.35217285 21.58813477v-21.58813477zM827.49987793 71.96081543000003H793.79931641h13.34838867c11.37084961 0.65917969 20.35217286 10.05249023 20.35217285 21.58813477v-21.58813477zM706.37561036 582.98986817v-33.70056153 13.34838867c-0.65917969 11.37084961-10.05249023 20.35217286-21.58813478 20.35217285h21.58813477zM827.00549317 702.96057129v-33.70056152 13.34838867c-0.65917969 11.37084961-10.05249023 20.35217286-21.58813478 20.35217284h21.58813477zM318.69555664 582.98986817h33.70056153-13.34838867c-11.37084961-0.65917969-20.35217286-10.05249023-20.35217286-21.58813478v21.58813477zM196.50012207 702.87817383H230.20068359h-13.34838867c-11.37084961-0.65917969-20.35217286-10.05249023-20.35217285-21.58813477V702.87817383zM773.61193848 182.12622069999998V601.2821045000001c-2.80151367 27.10876465-24.96643067 48.44970703-52.40478516 50.09765624h-416.93115234c-29.49829102-1.64794922-52.89916992-26.11999512-52.89916993-56.03027344v-415.5303955c2.22473145-27.35595703 23.97766114-49.10888672 51.33361817-51.33361817h419.56787109c27.93273926 2.38952637 50.18005372 25.29602051 51.33361817 53.64074707z m-454.83398438 13.92517091V582.8250732500001h387.35046387v-386.77368165H318.7779541zM310.62060547 770.0321045000001H178.86706543C152.335083 767.0657959 131.32373047 745.39526367 129.34619141 718.53369141v-129.77600099c0-18.62182617 15.07873536-33.78295898 33.78295898-33.78295897 18.62182617 0 33.78295898 15.07873536 33.78295898 33.78295898V702.54858398h113.79089356c18.62182617 0 33.78295898 15.07873536 33.78295898 33.78295899-0.16479492 18.62182617-15.24353028 33.70056153-33.86535644 33.70056153zM310.62060547 72.8671875H196.82971191v113.70849609c0 18.62182617-15.07873536 33.78295898-33.78295898 33.78295899-18.62182617 0-33.78295898-15.07873536-33.78295898-33.78295899v-125.32653809c0-29.49829102 22.74169922-53.64074708 51.58081055-55.94787597h129.61120605c18.62182617 0 33.78295898 15.07873536 33.78295898 33.78295899 0.08239747 18.62182617-14.99633789 33.78295898-33.61816406 33.78295898zM893.91223145 57.29406738V186.57568359000004c0 18.62182617-15.07873536 33.78295898-33.78295899 33.78295899-18.62182617 0-33.78295898-15.07873536-33.78295899-33.78295899v-113.79089356H712.72021484c-18.62182617 0-33.78295898-15.07873536-33.78295898-33.78295897 0-18.62182617 15.07873536-33.78295898 33.78295898-33.78295899h129.85839844c27.52075195 2.30712891 49.43847656 24.4720459 51.33361817 52.07519532zM839.77709961 770.0321045000001H712.72021484c-18.62182617 0-33.78295898-15.07873536-33.78295898-33.782959 0-18.62182617 15.07873536-33.78295898 33.78295898-33.78295898h113.79089356v-113.79089355c0-18.62182617 15.07873536-33.78295898 33.78295898-33.78295899 18.62182617 0 33.78295898 15.07873536 33.78295898 33.78295899V719.4400634799999c-2.80151367 27.8503418-25.9552002 49.76806641-54.29992675 50.59204101z"  horiz-adv-x="1024" />

    
    <glyph glyph-name="eye" unicode="&#58934;" d="M512 384m-64 0a64 64 0 1 1 128 0 64 64 0 1 1-128 0ZM933.12 405.333333c-27.306667 47.36-177.493333 285.013333-432.64 277.333334-235.946667-5.973333-372.48-213.333333-409.6-277.333334a42.666667 42.666667 0 0 1 0-42.666666c26.88-46.506667 170.666667-277.333333 421.973333-277.333334h10.666667c235.946667 5.973333 372.906667 213.333333 409.6 277.333334a42.666667 42.666667 0 0 1 0 42.666666z m-421.12-170.666666a149.333333 149.333333 0 1 0 149.333333 149.333333 149.333333 149.333333 0 0 0-149.333333-149.333333z"  horiz-adv-x="1024" />

    
    <glyph glyph-name="next" unicode="&#58892;" d="M319.906909 862.301091l449.675636-427.752727a69.725091 69.725091 0 0 0 0-101.096728l-449.675636-427.752727a38.818909 38.818909 0 0 0-52.922182 0 34.397091 34.397091 0 0 0 0 50.362182l432.174546 411.089454a23.272727 23.272727 0 0 1 0.791272 32.907637L266.984727 811.985455a34.397091 34.397091 0 0 0 0 50.315636 38.818909 38.818909 0 0 0 52.922182 0z"  horiz-adv-x="1024" />

    
    <glyph glyph-name="arrow-left" unicode="&#58893;" d="M366.23369609 383.68154358000004l378.20582873 378.21230143c15.8943409 15.88398459 15.8943409 41.6660088 1e-8 57.55128795-15.88398459 15.8943409-41.6660088 15.8943409-57.55128794 1e-8l-406.98600361-406.98859268c-15.89822451-15.8839846-15.89822451-41.6660088-1e-8-57.55128794l406.98729813-406.98729813c7.94458137-7.94846498 18.3604363-11.92399202 28.77499672-11.92399203s20.83170987 3.97552703 28.7749967 11.92399203c15.89822451 15.8839846 15.89822451 41.6660088 0 57.55128793l-378.20841781 378.21359598z"  horiz-adv-x="1024" />

    
    <glyph glyph-name="google" unicode="&#59161;" d="M853.333333 512v-85.333333h85.333334l-0.085334-85.333334h-85.632L853.333333 256h-85.034666v85.333333H682.666667v85.333334h85.632V512H853.333333z m-304.042666-170.666667H384v85.333334h256v-85.333334c-20.309333-121.088-129.152-213.333333-256-213.333333a256 256 0 1 0 138.410667 471.381333l-46.122667-71.808A170.666667 170.666667 0 1 1 549.290667 341.333333z"  horiz-adv-x="1024" />

    
    <glyph glyph-name="location" unicode="&#58880;" d="M99.84 583.168v-544.1536c0-13.2096 8.3968-24.8832 20.8896-29.0816l233.7792-78.7456V540.16L140.288 612.2496c-19.8656 6.7584-40.448-8.0896-40.448-29.0816zM711.0656 333.0048c-8.8064-9.3184-20.0704-15.872-32.256-18.944v-297.1648L892.928-55.1936c19.8656-6.656 40.5504 8.0896 40.5504 29.0816V518.0416c0 13.2096-8.3968 24.8832-20.8896 29.0816L868.352 562.0736c-9.728-27.136-25.3952-57.4464-46.8992-90.7264-28.3648-43.9296-66.56-91.8528-110.3872-138.3424zM613.9904 333.1072C571.392 378.5728 533.7088 425.984 504.832 470.2208c-22.3232 34.304-38.5024 65.2288-48.3328 92.5696l-67.1744-22.6304v-608.9728l254.6688 85.8112V314.6752c-11.3664 3.3792-21.8112 9.6256-30.0032 18.432zM663.04 837.5296h-0.512c-102.7072 0-187.4944-82.3296-190.3616-185.0368-0.512-17.8176 1.4336-35.1232 5.5296-51.6096 1.6384-8.8064 4.3008-18.2272 7.9872-28.2624 17.6128-48.4352 45.568-92.4672 77.0048-133.12 20.3776-26.4192 62.464-96.6656 99.84-96.6656 39.7312 0 85.2992 78.1312 105.984 106.0864 27.9552 37.7856 54.784 78.5408 70.7584 122.9824 3.6864 10.24 6.4512 19.968 8.0896 28.9792 3.6864 14.7456 5.632 30.208 5.632 46.1824 0 104.96-84.992 190.1568-189.952 190.464z m15.7696-285.3888c-5.3248-0.8192-10.752-1.3312-16.2816-1.3312-6.3488 0-12.4928 0.6144-18.5344 1.7408-29.7984 5.5296-54.9888 24.3712-69.2224 50.0736-7.9872 14.4384-12.4928 30.9248-12.4928 48.5376 0 55.3984 44.9536 100.352 100.352 100.352s100.352-44.9536 100.352-100.352c0-17.92-4.7104-34.7136-12.9024-49.2544-14.7456-25.9072-40.7552-44.7488-71.2704-49.7664z"  horiz-adv-x="1024" />

    
    <glyph glyph-name="email" unicode="&#58882;" d="M989.07 696H34.93C15.67 696 0 680.328 0 661.07v-552.906c0-19.258 15.672-34.92 34.93-34.92h954.14c19.26 0 34.93 15.662 34.93 34.92V661.07C1024 680.33 1008.328 696 989.07 696zM60.062 609.946L347.08 419.18 60.062 169.336zM512 381.686L129.468 635.94h765.064z m-113.046 3.024l93.71-62.288a34.866 34.866 0 0 1 19.336-5.86c6.726 0 13.46 1.96 19.336 5.86l93.71 62.288 288.806-251.406H110.148z m277.968 34.478l287.016 190.766v-440.618z m0 0"  horiz-adv-x="1024" />

    
    <glyph glyph-name="telephone" unicode="&#58883;" d="M861.42047573 101.16410026999995c-16.48594489-31.67864605-140.94026525-235.27715271-478.5700864 89.64159715C26.9287424 533.37547662 156.36962418 681.13148587 217.44335075 724.50757973v0.1048576c0.96702009 0.68739982 1.95734187 1.2582912 2.94766365 1.92238934 1.72432498 1.18838613 3.3554432 2.24861298 4.93995805 3.2505856 0.68739982 0.40777955 1.38645049 0.89711502 2.08550115 1.31654542 8.77308587 5.38269013 14.5752064 7.85266915 14.5752064 7.85266916l0.02330169-0.48933547c42.92171093 18.48989013 89.12896 10.73042773 106.51201991-26.61052871l35.30205867-85.73856427c20.71520142-44.51787662-2.98261618-109.56454115-52.94143716-145.3326336l-4.04284302-2.88940942c53.43077262-94.65146027 140.34607218-197.56336925 281.542656-276.46288783l6.75748978 9.4604857c35.74479075 49.97047182 100.79145529 73.64498773 145.30933191 52.953088l79.45875911-41.58186383c43.43434809-20.22586595 54.30458595-72.0371712 21.50745884-121.09887715zM768.51664213 645.095424h-174.87917511a12.058624 12.058624 0 0 1 0-24.12889885h174.87917511a12.07027485 12.07027485 0 0 1 0 24.12889885z m0-71.96726613h-174.87917511a12.058624 12.058624 0 1 1 0-24.117248h174.87917511a12.058624 12.058624 0 0 1 0 24.117248z m101.5021568 28.96399928c0-54.01331485-34.03211662-104.68283733-89.10565831-133.15750115-40.67309795-81.61416533-133.62353493-84.00258845-144.24910507-84.00258845l-1.47965724 0.01165085a12.07027485 12.07027485 0 1 0-6.25650346 22.15990613c17.31315485 11.3246208 31.1427072 24.19880391 41.32554524 38.44778667-99.17198791 4.67198862-178.12976071 73.09739805-178.12976071 156.5523968 0 86.44926578 84.75989333 156.77376285 188.9533952 156.77376285 104.18185102-0.01165085 188.94174435-70.33614791 188.94174435-156.7854137z m-24.117248 0c0 73.13235058-73.94790969 132.65651485-164.82449635 132.65651485-90.88823751 0-164.82449635-59.51251342-164.82449636-132.65651485 0-73.15565227 73.93625885-132.69146738 164.82449636-132.69146737 3.26223645 0 6.5011712 0.1048576 9.70515342 0.25631857l0.58254222 0.01165085a12.09357653 12.09357653 0 0 0 10.88188871-17.26655147 145.44914205 145.44914205 0 0 0-26.34255928-37.72543431c28.56787058 7.64295395 65.25637973 25.72506453 84.98125937 68.25064676 1.16508445 2.49328071 3.15737885 4.53217849 5.62735787 5.73221547 49.71415325 24.38521742 79.38885405 66.78264035 79.38885404 113.4326215z"  horiz-adv-x="1024" />

    
    <glyph glyph-name="fax" unicode="&#58884;" d="M552.16876221 717.7097168c-8.52813721 0-15.44952393-6.92138672-15.44952393-15.44952393s6.92138672-15.44952393 15.44952393-15.44952393 15.44952393 6.92138672 15.44952392 15.44952393-6.92138672 15.44952393-15.44952392 15.44952393zM830.26019287 606.47314453h-15.44952393V764.0582885700001c0 8.53122712-6.91675186 15.44952393-15.44952392 15.44952393H490.37066651c-8.53277207 0-15.44952393-6.91829682-15.44952393-15.44952393v-157.58514404h-71.06781006c0 25.55660247-20.7919693 46.34857177-46.34857178 46.34857178H264.80761719c-25.55660247 0-46.34857177-20.7919693-46.34857178-46.34857178H193.73980713c-42.59433747 0-77.24761963-34.65328217-77.24761963-77.24761963v-463.48571777c0-42.59433747 34.65328217-77.24761963 77.24761963-77.24761963h636.52038574c42.59433747 0 77.24761963 34.65328217 77.24761963 77.24761963V529.2255249c0 42.59433747-34.65328217 77.24761963-77.24761963 77.24761963zM505.82019042 748.60876465h278.09143067v-142.13562012H505.82019042V748.60876465zM249.35809326 606.47314453c0 8.51886749 6.93065644 15.44952393 15.44952393 15.44952393h92.69714355c8.51886749 0 15.44952393-6.93065644 15.44952393-15.44952393v-494.38476562c0-8.51886749-6.93065644-15.44952393-15.44952393-15.44952393H264.80761719c-8.51886749 0-15.44952393 6.93065644-15.44952393 15.44952393V606.47314453z m627.25067138-540.7333374c0-25.55660247-20.7919693-46.34857177-46.34857177-46.34857177H193.73980713c-25.55660247 0-46.34857177 20.7919693-46.34857177 46.34857177V529.2255249c0 25.55660247 20.7919693 46.34857177 46.34857177 46.34857178h24.71923828v-463.48571777c0-25.55660247 20.7919693-46.34857177 46.34857178-46.34857178h92.69714356c25.55660247 0 46.34857177 20.7919693 46.34857177 46.34857178V575.57409668h426.40686035c25.55660247 0 46.34857177-20.7919693 46.34857178-46.34857178v-463.48571777zM737.56304932 717.7097168h-123.59619141c-8.53277207 0-15.44952393-6.91829682-15.44952393-15.44952393s6.91675186-15.44952393 15.44952393-15.44952393h123.59619141c8.53277207 0 15.44952393 6.91829682 15.44952392 15.44952393s-6.91675186 15.44952393-15.44952392 15.44952393zM799.36114502 544.6750488299999H490.37066651c-8.53277207 0-15.44952393-6.91829682-15.44952393-15.44952393v-92.69714355c0-8.53122712 6.91675186-15.44952393 15.44952393-15.44952393h308.99047851c8.53277207 0 15.44952393 6.91829682 15.44952393 15.44952393v92.69714355c0 8.53122712-6.91675186 15.44952393-15.44952393 15.44952393z m-15.44952393-92.69714356H505.82019042v61.79809571h278.09143067v-61.7980957zM521.26971435 390.17980958c-25.55660247 0-46.34857177-20.7919693-46.34857177-46.34857179s20.7919693-46.34857177 46.34857177-46.34857177 46.34857177 20.7919693 46.34857179 46.34857177-20.7919693 46.34857177-46.34857179 46.34857178z m0-61.79809572c-8.51886749 0-15.44952393 6.93065644-15.44952392 15.44952393s6.93065644 15.44952393 15.44952392 15.44952393 15.44952393-6.93065644 15.44952393-15.44952393-6.93065644-15.44952393-15.44952393-15.44952393zM644.86590576 390.17980958c-25.55660247 0-46.34857177-20.7919693-46.34857178-46.34857179s20.7919693-46.34857177 46.34857178-46.34857177 46.34857177 20.7919693 46.34857178 46.34857177-20.7919693 46.34857177-46.34857178 46.34857178z m0-61.79809572c-8.51886749 0-15.44952393 6.93065644-15.44952392 15.44952393s6.93065644 15.44952393 15.44952392 15.44952393 15.44952393-6.93065644 15.44952393-15.44952393-6.93065644-15.44952393-15.44952393-15.44952393zM768.46209717 390.17980958c-25.55660247 0-46.34857177-20.7919693-46.34857178-46.34857179s20.7919693-46.34857177 46.34857178-46.34857177 46.34857177 20.7919693 46.34857177 46.34857177-20.7919693 46.34857177-46.34857177 46.34857178z m0-61.79809572c-8.51886749 0-15.44952393 6.93065644-15.44952393 15.44952393s6.93065644 15.44952393 15.44952393 15.44952393 15.44952393-6.93065644 15.44952392-15.44952393-6.93065644-15.44952393-15.44952392-15.44952393zM521.26971435 266.58361816c-25.55660247 0-46.34857177-20.7919693-46.34857177-46.34857178s20.7919693-46.34857177 46.34857177-46.34857177 46.34857177 20.7919693 46.34857179 46.34857177-20.7919693 46.34857177-46.34857179 46.34857179z m0-61.79809569c-8.51886749 0-15.44952393 6.93065644-15.44952392 15.44952391s6.93065644 15.44952393 15.44952392 15.44952393 15.44952393-6.93065644 15.44952393-15.44952393-6.93065644-15.44952393-15.44952393-15.44952391zM644.86590576 266.58361816c-25.55660247 0-46.34857177-20.7919693-46.34857178-46.34857178s20.7919693-46.34857177 46.34857178-46.34857177 46.34857177 20.7919693 46.34857178 46.34857177-20.7919693 46.34857177-46.34857178 46.34857179z m0-61.79809569c-8.51886749 0-15.44952393 6.93065644-15.44952392 15.44952391s6.93065644 15.44952393 15.44952392 15.44952393 15.44952393-6.93065644 15.44952393-15.44952393-6.93065644-15.44952393-15.44952393-15.44952391zM768.46209717 266.58361816c-25.55660247 0-46.34857177-20.7919693-46.34857178-46.34857178s20.7919693-46.34857177 46.34857178-46.34857177 46.34857177 20.7919693 46.34857177 46.34857177-20.7919693 46.34857177-46.34857177 46.34857179z m0-61.79809569c-8.51886749 0-15.44952393 6.93065644-15.44952393 15.44952391s6.93065644 15.44952393 15.44952393 15.44952393 15.44952393-6.93065644 15.44952392-15.44952393-6.93065644-15.44952393-15.44952392-15.44952391zM521.26971435 142.98742675000005c-25.55660247 0-46.34857177-20.7919693-46.34857177-46.34857177s20.7919693-46.34857177 46.34857177-46.34857178 46.34857177 20.7919693 46.34857179 46.34857178-20.7919693 46.34857177-46.34857179 46.34857178z m0-61.79809569c-8.51886749 0-15.44952393 6.93065644-15.44952392 15.44952392s6.93065644 15.44952393 15.44952392 15.44952393 15.44952393-6.93065644 15.44952393-15.44952393-6.93065644-15.44952393-15.44952393-15.44952392zM644.86590576 142.98742675000005c-25.55660247 0-46.34857177-20.7919693-46.34857178-46.34857177s20.7919693-46.34857177 46.34857178-46.34857178 46.34857177 20.7919693 46.34857178 46.34857178-20.7919693 46.34857177-46.34857178 46.34857178z m0-61.79809569c-8.51886749 0-15.44952393 6.93065644-15.44952392 15.44952392s6.93065644 15.44952393 15.44952392 15.44952393 15.44952393-6.93065644 15.44952393-15.44952393-6.93065644-15.44952393-15.44952393-15.44952392zM768.46209717 142.98742675000005c-25.55660247 0-46.34857177-20.7919693-46.34857178-46.34857177s20.7919693-46.34857177 46.34857178-46.34857178 46.34857177 20.7919693 46.34857177 46.34857178-20.7919693 46.34857177-46.34857177 46.34857178z m0-61.79809569c-8.51886749 0-15.44952393 6.93065644-15.44952393 15.44952392s6.93065644 15.44952393 15.44952393 15.44952393 15.44952393-6.93065644 15.44952392-15.44952393-6.93065644-15.44952393-15.44952392-15.44952392z"  horiz-adv-x="1024" />

    
    <glyph glyph-name="search__easyiconnet" unicode="&#58885;" d="M419.30285644 198.60571288999995c-154.49523902 0-278.09143067 123.59619164-278.09143066 278.09143067s123.59619164 278.09143067 278.09143067 278.09143066 278.09143067-123.59619164 278.09143066-278.09143067-123.59619164-278.09143067-278.09143067-278.09143066zM419.30285644 692.99047875C298.79656982 692.99047875 203.00952125 597.2034301799999 203.00952125 476.69714356s95.78704858-216.2933352 216.2933352-216.2933352 216.2933352 95.78704858 216.29333519 216.29333519-95.78704858 216.2933352-216.29333519 216.2933352zM851.88952613 13.211425780000013c-9.26971435 0-15.44952368 3.08990502-21.62933302 9.26971435l-247.19238329 247.19238258c-12.35961937 12.35961937-12.35961937 30.89904809 0 43.25866747s30.89904809 12.35961937 43.25866747 0l247.19238258-247.19238329c12.35961937-12.35961937 12.35961937-30.89904809 0-43.25866676-6.17980933-6.17980933-12.35961937-9.26971435-21.62933374-9.26971435z"  horiz-adv-x="1024" />

    
    <glyph glyph-name="gear__easyiconnet" unicode="&#58886;" d="M1012.108527 493.147287c-3.968992 15.875969-15.875969 25.79845-31.751938 27.782946l-83.348837 11.906976c-3.968992 11.906977-1.984496 5.953488-7.937985 17.860465l51.5969 67.472869c9.922481 11.906977 9.922481 29.767442 1.984496 43.658914 0 1.984496-21.829457 35.72093-69.457365 83.348838s-81.364341 69.457364-83.348837 69.457364c-13.891473 7.937984-31.751938 7.937984-43.658914-1.984496l-67.472869-51.596899c-11.906977 5.953488-5.953488 3.968992-17.860465 7.937984l-11.906977 83.348837c-1.984496 15.875969-11.906977 27.782946-27.782945 31.751938-1.984496 0-41.674419 11.906977-109.147287 11.906977s-107.162791-11.906977-109.147287-11.906977c-15.875969-3.968992-25.79845-15.875969-27.782946-31.751938l-11.906976-83.348837c-11.906977-3.968992-5.953488-1.984496-17.860466-7.937984l-67.472868 51.596899c-11.906977 9.922481-29.767442 9.922481-43.658914 1.984496-1.984496 0-35.72093-21.829457-83.348838-69.457364s-69.457364-81.364341-69.457364-83.348838c-7.937984-13.891473-7.937984-31.751938 1.984496-43.658914l51.596899-67.472869c-5.953488-11.906977-3.968992-7.937984-7.937984-19.844961l-83.348837-9.92248c-15.875969-1.984496-27.782946-11.906977-31.751938-27.782946 0-1.984496-11.906977-41.674419-11.906977-109.147287s11.906977-107.162791 11.906977-109.147287c3.968992-15.875969 15.875969-25.79845 31.751938-27.782946l83.348837-11.906976c3.968992-11.906977 1.984496-5.953488 7.937984-17.860465l-51.596899-67.472869c-9.922481-11.906977-9.922481-29.767442-1.984496-43.658914 0-1.984496 21.829457-35.72093 69.457364-83.348838s81.364341-69.457364 83.348838-69.457364c13.891473-7.937984 31.751938-7.937984 43.658914 1.984496l67.472868 51.596899c11.906977-5.953488 7.937984-3.968992 19.844962-7.937984l9.92248-83.348837c1.984496-15.875969 11.906977-27.782946 27.782946-31.751938 1.984496 0 41.674419-11.906977 109.147287-11.906977s107.162791 11.906977 109.147287 11.906977c15.875969 3.968992 25.79845 15.875969 27.782945 31.751938l11.906977 83.348837c11.906977 3.968992 5.953488 1.984496 17.860465 7.937984l67.472869-51.596899c11.906977-9.922481 29.767442-9.922481 43.658914-1.984496 1.984496 0 35.72093 21.829457 83.348837 69.457364s69.457364 81.364341 69.457365 83.348838c7.937984 13.891473 7.937984 31.751938-1.984496 43.658914l-51.5969 67.472869c5.953488 11.906977 3.968992 5.953488 7.937985 17.860465l83.348837 11.906976c15.875969 1.984496 27.782946 11.906977 31.751938 27.782946 0 1.984496 11.906977 41.674419 11.906977 109.147287s-11.906977 107.162791-11.906977 109.147287z m-69.457364-174.635659l-79.379845-9.922481c-13.891473-1.984496-27.782946-11.906977-31.751938-25.798449-11.906977-33.736434-7.937984-23.813953-21.829458-53.581396-5.953488-13.891473-3.968992-29.767442 3.968993-41.674418l49.612403-61.51938c-9.922481-11.906977-23.813953-29.767442-43.658915-49.612403s-35.72093-33.736434-47.627907-43.658915l-63.503876 49.612403c-11.906977 7.937984-27.782946 9.922481-41.674418 3.968992-33.736434-15.875969-17.860465-9.922481-53.581396-21.829457-13.891473-3.968992-23.813953-17.860465-25.798449-31.751938l-9.922481-79.379845c-15.875969-1.984496-37.705426-3.968992-65.488372-3.968992s-49.612403 1.984496-65.488372 3.968992l-9.922481 79.379845c-1.984496 13.891473-11.906977 27.782946-25.798449 31.751938-33.736434 11.906977-23.813953 7.937984-53.581396 21.829457-13.891473 5.953488-27.782946 3.968992-39.689922-3.968992l-63.503876-49.612403c-11.906977 9.922481-29.767442 23.813953-49.612403 43.658915s-31.751938 35.72093-41.674419 47.627907l47.627907 63.503876c7.937984 11.906977 9.922481 27.782946 3.968992 41.674418-15.875969 29.767442-9.922481 19.844961-21.829457 53.581396-3.968992 13.891473-17.860465 23.813953-31.751938 25.798449l-79.379845 9.922481c-1.984496 15.875969-3.968992 37.705426-3.968992 65.488372s1.984496 49.612403 3.968992 65.488372l79.379845 9.922481c13.891473 1.984496 27.782946 11.906977 31.751938 25.798449s9.922481 25.79845 9.922481 27.782946c0 0 5.953488 13.891473 11.906976 25.79845 5.953488 13.891473 3.968992 27.782946-3.968992 39.689922l-47.627907 63.503876c9.922481 11.906977 21.829457 29.767442 41.674419 49.612403s37.705426 31.751938 49.612403 41.674419l63.503876-47.627907c11.906977-7.937984 25.79845-9.922481 39.689922-3.968992 29.767442 15.875969 19.844961 9.922481 53.581396 21.829457 13.891473 3.968992 23.813953 17.860465 25.798449 31.751938l9.922481 79.379845c15.875969 1.984496 37.705426 3.968992 65.488372 3.968992s49.612403-1.984496 65.488372-3.968992l9.922481-79.379845c1.984496-13.891473 11.906977-27.782946 25.798449-31.751938 33.736434-11.906977 23.813953-7.937984 53.581396-21.829457 13.891473-5.953488 29.767442-3.968992 41.674418 3.968992l63.503876 47.627907c11.906977-9.922481 27.782946-21.829457 47.627907-41.674419s33.736434-37.705426 43.658915-49.612403l-49.612403-63.503876c-7.937984-11.906977-9.922481-25.79845-3.968993-39.689922 15.875969-33.736434 11.906977-17.860465 23.813954-53.581396 3.968992-13.891473 15.875969-23.813953 29.767442-25.798449l79.379845-9.922481c1.984496-15.875969 3.968992-37.705426 3.968992-65.488372s-1.984496-49.612403-3.968992-65.488372zM512.015504 628.093023c-134.945736 0-244.093023-109.147287-244.093023-244.093023s109.147287-244.093023 244.093023-244.093023 244.093023 109.147287 244.093023 244.093023-109.147287 244.093023-244.093023 244.093023z m0-410.790697c-93.271318 0-166.697674 73.426357-166.697675 166.697674s73.426357 166.697674 166.697675 166.697674 166.697674-73.426357 166.697674-166.697674-73.426357-166.697674-166.697674-166.697674z"  horiz-adv-x="1032" />

    
    <glyph glyph-name="rising__easyiconnet" unicode="&#58887;" d="M75.3957 385c-3.876-0.688-7.688-1-11.438-1C33.5817 384 6.6457 405.75 1.0197 436.624c-6.25 34.812 16.876 68.126 51.688 74.376 156.688 28.25 325 108.126 500.688 236.438L479.5197 837.062 832.0197 896l-125.188-334.75-71.938 87.25c-195.624-144.126-379.124-231-559.498-263.5zM192.0197 192H128.0197c-35.312 0-64-28.626-64-64v-192c0-35.376 28.688-64 64-64h64c35.376 0 64 28.626 64 64v192c0 35.374-28.624 64-64 64z m512 256h-64c-35.376 0-64-28.626-64-64v-448c0-35.376 28.626-64 64-64h64c35.376 0 64 28.626 64 64V384c0 35.374-28.624 64-64 64z m256 128h-64c-35.376 0-64-28.626-64-64v-576c0-35.376 28.626-64 64-64h64c35.376 0 64 28.626 64 64V512c0 35.374-28.624 64-64 64zM448.0197 320h-64c-35.312 0-64-28.626-64-64v-320c0-35.376 28.688-64 64-64h64c35.376 0 64 28.626 64 64V256c0 35.374-28.624 64-64 64z"  horiz-adv-x="1024" />

    
    <glyph glyph-name="search__easyiconnet1" unicode="&#58888;" d="M696.32 260.010667l229.845333-229.845334-60.330666-60.330666-229.845334 229.845333a341.333333 341.333333 0 1 0 60.330667 60.330667zM426.666667 213.333333a256 256 0 1 1 0 512 256 256 0 0 1 0-512z"  horiz-adv-x="1024" />

    
    <glyph glyph-name="worlwide__easyiconnet" unicode="&#58889;" d="M495.084358-127.573376v-0.424491h34.129921v0.426624c275.946805 9.072159 494.932907 235.426057 494.883845 511.522181-0.358364 275.931873-219.120488 502.051128-494.883845 511.522181v0.426624h-34.129921v-0.426624C219.079959 886.460687 0 660.108922 0 383.953071c0-276.147319 219.077826-502.499083 495.084358-511.522181zM132.829384 93.846615h135.284605a402.101657 402.101657 0 0 1 102.716128-166.349231A479.50405 479.50405 0 0 0 132.829384 93.846615z m856.654601 307.169283h-187.437256a908.862714 908.862714 0 0 1-34.699464 238.909443h147.961737a474.738659 474.738659 0 0 0 74.226178-238.909443z m-494.399627-307.169283v-186.805852c-86.608939 8.664734-150.361497 83.208746-190.139919 186.805852z m-202.089657 34.129921a856.091458 856.091458 0 0 0-36.619272 238.909442h238.708929v-238.909442z m236.219578-220.986968v186.857047h190.615605c-5.6677-14.788921-11.642569-29.181082-18.23391-42.6624-30.520681-62.20178-84.723261-135.645102-172.381695-144.194647z m0 220.986968v238.909442h238.508415a853.248009 853.248009 0 0 0-35.970803-238.909442z m272.847382 238.909442h187.488451a475.003166 475.003166 0 0 0-73.86568-238.909442h-148.320102a909.555978 909.555978 0 0 1 34.697331 238.909442z m-34.129921 34.12992h-238.717461v238.909443h202.078992a856.044529 856.044529 0 0 0 36.621404-238.909443z m-238.717461 273.039363V860.869646c86.598274-8.673266 150.350832-83.208746 190.131386-186.814385z m-34.129921 186.814385v-186.814385h-190.139919c39.778422 103.605639 103.53098 178.141119 190.139919 186.814385z m0-220.944305v-238.909443H256.375429a856.044529 856.044529 0 0 0 36.619272 238.909443z m-272.631937-238.909443h-187.714561a474.738659 474.738659 0 0 0 74.226177 238.909443h148.059861a896.537546 896.537546 0 0 1-34.571477-238.909443z m-0.223977-34.12992a909.227477 909.227477 0 0 1 34.712262-238.909442h-147.953205a474.668267 474.668267 0 0 0-74.232576 238.909442z m635.925741-312.459421a474.561611 474.561611 0 0 0-205.0035-127.287538 401.299603 401.299603 0 0 1 103.106489 166.707596h135.478719a481.859014 481.859014 0 0 0-33.579575-39.420058z m33.306536 619.628704h-135.135287A401.820085 401.820085 0 0 1 653.609306 840.389561a479.461387 479.461387 0 0 0 237.851415-166.3343z m-520.27224 166.468687a350.542012 350.542012 0 0 1-79.183548-108.823251 566.347632 566.347632 0 0 1-23.890944-57.645436H132.829384a479.442189 479.442189 0 0 0 238.359097 166.468687z m0 0"  horiz-adv-x="1024" />

    
    <glyph glyph-name="history__easyiconnet" unicode="&#58890;" d="M645.191194 274.177417V619.169306h63.90936V661.720613H34.047637v-42.551307h66.018798v-344.991889h66.018797V619.169306h85.168534v-344.991889h65.985837V619.169306h110.745462v-344.991889h66.051757V619.169306h85.135574v-344.991889zM0 681.430668h747.400026L376.930089 896zM709.100554 236.899704v24.489249H40.441869v-48.945539H17.007339v-49.011458h719.81254v49.011458h-27.719325zM909.134544 414.290202s55.63641-6.657912 96.836359 35.926355c41.199949 42.584267 28.378525 102.076992 28.378524 102.076993s-52.933694-0.03296-95.221321-43.671946c-42.254667-43.671945-29.993563-94.331402-29.993562-94.331402zM907.189906 506.479207s44.627784 33.849878 44.627784 93.111884c0 59.229046-50.626497 93.111884-50.626496 93.111883s-38.035792-36.849234-38.035793-97.627398c0-60.844084 44.034505-88.596369 44.034505-88.596369zM939.128106 388.251835c-42.254667-43.638985-29.993563-94.298442-29.993562-94.298442s55.63641-6.690872 96.836359 35.893395c41.199949 42.584267 28.378525 102.109952 28.378524 102.109952s-52.966654-0.03296-95.221321-43.704905zM939.128106 268.706064c-42.254667-43.704905-29.993563-94.265482-29.993562-94.265482s55.63641-6.756792 96.836359 35.827475c41.199949 42.584267 28.378525 102.142912 28.378524 102.142912s-52.966654-0.03296-95.221321-43.704905zM939.128106 148.501094c-42.254667-43.671945-29.993563-94.298442-29.993562-94.298442s55.63641-6.723832 96.836359 35.893395c41.199949 42.551307 28.378525 102.076992 28.378524 102.076993s-52.966654-0.03296-95.221321-43.671946zM897.730398 414.718682s12.327025 50.626497-29.960603 94.265482c-42.287627 43.671945-95.221321 43.737865-95.221321 43.737865s-12.854384-59.558646 28.345565-102.142912c41.232908-42.551307 96.836359-35.860435 96.836359-35.860435zM897.730398 294.348912s12.327025 50.659457-29.960603 94.331402c-42.287627 43.671945-95.221321 43.704905-95.221321 43.704906s-12.854384-59.525686 28.345565-102.142913c41.232908-42.584267 96.836359-35.893395 96.836359-35.893395zM897.730398 174.770182s12.327025 50.626497-29.960603 94.298442c-42.287627 43.671945-95.221321 43.704905-95.221321 43.704905s-12.854384-59.558646 28.345565-102.142912c41.232908-42.551307 96.836359-35.860435 96.836359-35.860435zM867.769795 148.863654c-42.287627 43.671945-95.221321 43.737865-95.221321 43.737865s-12.854384-59.558646 28.345565-102.142912c41.199949-42.551307 96.803399-35.860435 96.803399-35.860435s12.359985 50.626497-29.927643 94.265482zM897.038239-45.171624c2.142397-0.03296 4.251835-0.1648 6.427192-0.164799 4.845114 0 9.690228 0.19776 14.469422 0.362559v72.643749h-20.896614v-72.841509zM35.662675 89.634608h100.626755v-149.572293l231.181151-68.062315 217.568688 68.062315v149.572293h48.978498v-106.098107h-24.456289v-89.749968h76.137505v89.749968h-16.28222v106.098107h29.861723v45.880263H35.662675z"  horiz-adv-x="1036" />

    
    <glyph glyph-name="honor__easyiconnet" unicode="&#58891;" d="M380.92594-86.991073a34.549646 34.549646 0 0 1 52.811601-15.987258l76.331112 55.236514 64.12071-69.099291c6.630957-7.145983 15.837043-11.137432 25.429397-11.137433 1.115889 0 2.253238 0.128756 3.390587 0.171676 10.772622 1.09443 20.472275 7.081604 26.159017 16.373527l43.11195 70.129344H363.973008l16.952932-45.687079zM57.21078 307.497213l80.279643-49.421015-39.313634-85.708873c-4.506476-9.828409-4.184584-21.223354 0.922754-30.79425 0.622323-1.201727 1.502159-2.1674 2.274697-3.283289h98.305545v76.738841h14.935748a381.719938 381.719938 0 0 0-39.549688 168.928454c0 212.233539 172.018609 384.273607 384.252148 384.273608 212.233539 0 384.273607-172.040069 384.273608-384.273608 0-60.708663-14.463641-117.876525-39.528229-168.928454h17.146067v-76.738841h23.819942l-9.828409 41.159143 88.391299 32.811434a34.614024 34.614024 0 0 1 16.030178 52.833061l-55.279434 76.331112 69.120751 64.07779a34.721321 34.721321 0 0 1-5.40777 54.979002l-80.322562 49.463934 39.335094 85.601576a34.656943 34.656943 0 0 1-26.030262 48.755773l-93.090909 14.892829 3.562262 94.163879a34.678402 34.678402 0 0 1-42.704221 35.107591l-91.696047-21.888596-32.768515 88.34838a34.871537 34.871537 0 0 1-22.425081 21.158976 34.76424 34.76424 0 0 1-30.42944-5.06442l-76.37403-55.257974-64.120709 69.099292a34.635483 34.635483 0 0 1-54.957543-5.407771l-49.399555-80.301102-85.665955 39.313634a34.828618 34.828618 0 0 1-30.794249-0.922755c-9.549436-5.128798-16.201853-14.377803-17.940065-25.086047l-14.84991-93.090909-94.206798 3.519343a34.656943 34.656943 0 0 1-35.043212-42.661302l21.867136-91.717507-88.391299-32.789974a34.549646 34.549646 0 0 1-21.116057-22.44654 34.828618 34.828618 0 0 1 5.08588-30.42944l55.236514-76.352571-69.120751-64.034872a34.571105 34.571105 0 0 1 5.515068-54.957542zM735.821619-70.467329a34.635483 34.635483 0 0 1 48.669936 26.07318l0.515025 3.068695H672.323232l63.498387-29.141875zM869.320592 215.050086a351.311958 351.311958 0 0 1 43.047571 168.971373c0 195.001635-158.649399 353.629574-353.629574 353.629574-195.001635 0-353.629574-158.627939-353.629574-353.629574 0-61.159311 15.622449-118.713441 43.069031-168.971373h28.347877a326.912612 326.912612 0 0 0-47.189237 168.971373c0 181.632424 147.769479 329.401903 329.401903 329.401903s329.401903-147.769479 329.401903-329.401903c0-61.803093-17.425039-119.48598-47.167777-168.971373h28.347877zM1117.455719-41.325454l-55.38673 78.798944 55.279433 79.31397H897.003227v76.781759H223.950375v-76.781759H0.107297l55.257974-79.31397L0-41.325454h250.753175V-14.30806h615.970829v-26.995934h250.731715z m-890.951674 24.249131H46.631292l38.326502 54.485435-38.433799 55.150677h177.42638v-106.867849h2.575129v-2.768263z m664.42617 2.768263h6.073012v106.867849h173.907037l-38.433798-55.150677 38.305042-54.485435h-179.851293v2.768263z"  horiz-adv-x="1117" />

    


  </font>
</defs>
</svg>
